Page 1 of 1

About playback 1080p 60fps video files

Posted: Thu Jul 30, 2015 10:04 pm
by mpchen
I had setting my EZCast dongle's resolution 1920*1080 60fps.
But when I use NB playback 1080p 60fps video files, it is like slow motion broadcast(I put my NB close to dongle)
How to improveļ¼Ÿ
Thanks!

Re: About playback 1080p 60fps video files

Posted: Fri Jul 31, 2015 2:28 pm
by Henry Chou
Dear Chen:

Please use EZCast/Video for video streaming instead of desktop mirroring.
This way will provide better video playback quality. Thanks for your understanding.

Best Regards,
EZCast: Henry

Re: About playback 1080p 60fps video files

Posted: Fri Jul 31, 2015 4:20 pm
by mpchen
My dongle can not smooth playback in video streaming or desktop mirroring mode.

Re: About playback 1080p 60fps video files

Posted: Fri Jul 31, 2015 4:45 pm
by Henry Chou
Sorry for the inconvenience. May we know the bitrate of the video (in Mbps)? the bottleneck should be the Wifi bandwidth. Please try to reboot your home router and dongle for a better wifi channel selection. Please try again and thanks for your understanding.

BR,
EZCast: Henry

Re: About playback 1080p 60fps video files

Posted: Sat Aug 01, 2015 11:48 am
by mpchen
The file information is display by Potplayer.

General
ID : 0 (0x0)
Complete name : F:\00010.MTS
Format : BDAV
Format/Info : Blu-ray Video
File size : 414 MiB
Duration : 2mn 4s
Overall bit rate mode : Variable
Overall bit rate : 28.0 Mbps
Maximum Overall bit rate : 28.0 Mbps

Video
ID : 4113 (0x1011)
Menu ID : 1 (0x1)
Format : AVC
Format/Info : Advanced Video Codec
Format profile : High@L4.2
Format settings, CABAC : Yes
Format settings, ReFrames : 2 frames
Codec ID : 27
Duration : 2mn 4s
Bit rate mode : Variable
Bit rate : 26.5 Mbps
Width : 1 920 pixels
Height : 1 080 pixels
Display aspect ratio : 16:9
Frame rate : 59.940 fps
Color space : YUV
Chroma subsampling : 4:2:0
Bit depth : 8 bits
Scan type : Progressive
Bits/(Pixel*Frame) : 0.213
Stream size : 395 MiB (95%)

Audio
ID : 4352 (0x1100)
Menu ID : 1 (0x1)
Format : AC-3
Format/Info : Audio Coding 3
Mode extension : CM (complete main)
Format settings, Endianness : Big
Codec ID : 129
Duration : 2mn 4s
Bit rate mode : Constant
Bit rate : 192 Kbps
Channel(s) : 2 channels
Channel positions : Front: L R
Sampling rate : 48.0 KHz
Compression mode : Lossy
Stream size : 2.84 MiB (1%)

Text
ID : 4608 (0x1200)
Menu ID : 1 (0x1)
Format : PGS
Codec ID : 144
Duration : 2mn 3s

Re: About playback 1080p 60fps video files

Posted: Sun Aug 02, 2015 1:04 pm
by Henry Chou
Dear Chen:

This video of 28Mbps is very high bit rate and not very suitable for video streaming (no enough bandwidth for crowded 2.4G channels). Please use Screen mIrroring of desktop but change the resolution to "LQ". This is an alternative for very high bitrate videos. Sorry for the inconvenience and we will also keep on improving the performance boundary of EZCast dongles.

Thanks for your understanding.

Best Regards,
EZCast: Henry

Re: About playback 1080p 60fps video files

Posted: Mon Aug 03, 2015 12:07 pm
by mpchen
May I ask how much of the maximum bandwidth normally playback?
Thanks!

Re: About playback 1080p 60fps video files

Posted: Tue Aug 04, 2015 6:28 pm
by Henry Chou
Depends on the wifi channel situation, can as good as 40Mbps and as bad as under 4 Mbps.